#TITLE:Burden;
#SUBTITLE:;
#ARTIST:Baek Ji Young;
#TITLETRANSLIT:Burden;
#SUBTITLETRANSLIT:;
#ARTISTTRANSLIT:Baek Ji Young;
#CREDIT:;
#BANNER:Burden-bn.png;
#BACKGROUND:Burden-bg.png;
#LYRICSPATH:;
#CDTITLE:pm4cd.png;
#MUSIC:Burden.mp3;
#OFFSET:0.140;
#SAMPLESTART:34.897;
#SAMPLELENGTH:20.000;
#SELECTABLE:YES;
#BPMS:0.000=140.000;
#STOPS:;
#BGCHANGES:;
// cache tags:
#FIRSTBEAT:4.750;
#LASTBEAT:539.250;
#SONGFILENAME:Songs/SDO pack 3/Burden/Burden.sm;
#HASMUSIC:1;
#HASBANNER:1;
#MUSICLENGTH:234.788;
// end cache tags

//---------------dance-single - ----------------
#NOTES:
     dance-single:
     :
     Hard:
     14:
     1.000,1.000,1.000,0.179,1.000,1306.000,441.000,42.000,0.000,64.000:
0000
0000
0000
0000
,
0000
0000
0000
1000
0000
0001
0000
0100
0010
0000
1000
0100
0000
0001
0000
0010
,
0000
0100
0000
1000
0000
0010
0000
0100
0010
0000
1000
0010
0000
0100
0000
0010
,
0000
0001
0000
1100
0000
0010
0000
0100
0001
0000
0001
0010
0000
1000
0000
0100
,
0000
0010
0000
0001
0000
1000
0000
0010
0100
0000
0001
0010
0000
0100
0000
0010
,
0000
0001
0000
1100
0000
0001
0000
1100
0010
0000
0100
1010
0000
0100
0000
1010
,
0000
0001
0000
1100
0000
0001
0000
1100
0010
0000
0100
1010
0000
0100
0000
1010
,
0000
1001
0000
0001
0000
0100
0000
0011
1000
0000
0100
0011
0000
0100
0000
0011
,
0000
1001
0000
0101
0000
1010
0000
0101
0010
1000
1100
0011
0000
1100
0000
0101
,
0000
1010
1000
1000
0000
0100
0000
1001
0000
0100
0000
1000
0000
0100
0000
1001
,
0000
0100
0000
1000
0000
0100
0000
1001
0000
0100
0000
1000
0000
0100
0000
1001
,
0000
0101
0000
0001
0000
0010
0000
1001
0000
0010
0000
0001
0000
0010
0000
1001
,
0000
0010
0000
2002
0000
0000
0000
0000
0000
0000
0000
0000
0000
0000
0000
0000
,
0000
0000
3003
1020
0000
0001
0000
1000
0000
0001
0000
1000
0030
0101
0000
1010
,
0000
0101
0000
1020
0000
0001
0000
1000
0000
0001
0000
1030
0000
0001
0000
1010
,
0000
1001
0000
2100
0000
0001
0000
0100
0000
0001
3000
1100
0000
0011
0000
1010
,
0000
0101
0000
0120
0000
0001
0000
0100
0000
0001
0030
1100
0000
1001
0000
1100
,
0000
1001
0000
0110
0000
0001
0000
1010
0000
1002
0000
0100
0000
1000
0000
0010
,
0000
0100
0003
1010
0000
0100
0000
1010
0000
0102
0000
0100
0000
0010
0000
1000
,
0000
1010
0003
0210
0000
0000
0000
1000
0000
0000
0000
0001
0300
0010
0000
1001
,
0000
1000
0000
0201
0000
0000
0000
0010
0000
0000
0000
1000
0000
0000
0000
0010
,
0000
0000
0300
1000
0000
0010
0000
0100
0010
0000
0001
1000
0000
0011
0000
0110
,
0000
1010
0000
0001
0000
0100
0000
0010
0100
0000
1000
0010
0000
1100
0000
1010
,
0000
0101
0000
1000
0000
0010
0000
0100
0010
0000
0001
0100
0000
1000
0000
0101
,
0000
1010
0000
0011
0000
0100
0000
0010
0100
0000
1000
0001
0000
1010
0000
0101
,
0000
1010
0000
0001
0000
0010
0000
1100
0000
0010
0000
0001
0000
0010
0000
1100
,
0000
0010
0000
0100
0000
0010
0000
0101
0000
0010
0000
1000
0000
0100
0000
1001
,
0000
0101
0000
1000
0000
0010
0000
1001
0000
0010
0000
0100
0000
0010
0000
1001
,
0000
0010
0000
1000
0000
0101
0000
1000
0000
0101
0000
1000
0000
1010
0000
1000
,
0000
1001
0000
0010
0000
0100
0000
1000
0000
0100
0000
0010
0000
0101
0000
1001
,
0000
0110
0000
0001
0000
0010
0000
1000
0000
0010
0000
0001
0000
0110
0000
1001
,
0000
0011
0000
1000
0000
0100
0000
0010
0000
0100
0000
1000
0000
0110
0000
1001
,
0000
0110
0000
1000
0000
0100
0000
0010
0000
0100
0000
1001
0000
0110
0000
0011
,
0000
0110
0000
1000
0000
0000
0000
1010
0000
0000
0000
1000
0000
0001
0000
1010
,
0000
0001
0000
0100
0000
0000
0000
0101
0000
0000
0000
0100
0000
1000
0000
0101
,
0000
1000
0000
0010
0000
0000
0000
1010
0000
0000
0000
0010
0000
0001
0000
1010
,
0000
0000
0000
0100
0000
0000
0000
0000
0000
1100
0000
0000
0010
0000
0000
0001
0000
0000
0010
0000
0000
1100
0000
0000
0010
0000
0000
0001
0000
0000
0010
0000
0000
1000
0000
0100
0000
0010
0000
0100
0000
0010
0000
0001
0000
1000
0000
0100
,
0000
0010
0000
0100
0000
0010
0000
0001
0000
2020
0000
0000
0000
0000
0000
0000
0000
0000
0000
0000
0000
0000
0000
0000
0000
0000
0000
0000
0000
0000
0000
0000
0000
0000
0000
0000
0000
0000
0000
0000
0000
0000
0000
0000
0000
0000
0000
0000
,
0000
3030
0000
2001
0000
0010
0000
0100
0000
0010
0000
0001
0000
0010
0000
0100
,
0000
0001
3000
1020
0000
0100
0000
0001
0000
0100
0000
1000
0000
0100
0000
0001
,
0000
1000
0030
0201
0000
0010
0000
1000
0000
0010
0000
0001
0000
0011
0000
1001
,
0000
0011
0300
1002
0000
0100
0000
0010
0000
0100
0000
1000
0000
0010
0000
0100
,
0000
0010
0003
2100
0000
0010
0000
0001
0000
0010
0000
0100
0000
0001
0000
0010
,
0000
0101
3000
0021
0000
0100
0000
1000
0000
0100
0000
0001
0000
0100
0000
1000
,
0000
0100
0030
0001
0010
0001
0010
0001
0100
0001
0100
0001
1000
0001
1000
0010
,
0100
0000
0000
0010
0000
0000
0100
0000
0000
1000
0000
0000
0010
0000
0000
0100
0000
0000
0001
0000
0000
1000
0000
0000
0010
0000
0000
0100
0000
0000
0001
0000
0000
1000
0000
0100
0000
0010
0000
0100
0000
0010
0000
0001
0000
1000
0000
0100
,
0000
0010
0000
0100
0000
0010
0000
0001
0000
1000
0000
0000
0000
0000
0000
0100
0000
0000
0000
0000
0000
1001
0000
0000
0000
0000
0000
0100
0000
0000
0000
0000
0000
1000
0000
0000
0000
0000
0000
0010
0000
0000
0000
0000
0000
1001
0000
0000
,
0000
1010
0000
1000
0000
0100
0000
1010
0000
0100
0000
1000
0000
0100
0000
1001
,
0000
0100
0000
0010
0000
1000
0000
0110
0000
1000
0000
0010
0000
1010
0000
0110
,
0000
1000
0000
0010
0000
0100
0000
0011
0000
0100
0000
0010
0000
0100
0000
0011
,
0000
0100
0000
1000
0000
0010
0000
0001
0000
0010
0000
1000
0000
0010
0000
0001
,
0000
0011
0000
0101
0000
1000
0000
0110
0000
1000
0000
0101
0000
1000
0000
0110
,
0000
0001
0000
1001
0010
0001
0010
1000
0010
0001
0010
1000
0010
0001
0010
1000
,
0010
0000
0000
0001
0000
0000
0010
0000
0000
0100
0000
0000
0010
0000
0000
1000
0000
0000
0001
0000
0000
0100
0000
0000
0010
0000
0000
1000
0000
0000
0001
0000
0000
0100
0000
0010
0000
1000
0000
0001
0000
0100
0000
0010
0000
1000
0000
0001
,
0000
0100
0000
0010
0000
1000
0000
0001
0000
0110
0000
0000
0000
0000
0000
0001
0000
0000
0000
0000
0000
1100
0000
0000
0010
0000
0000
0000
0000
0000
0100
0000
0000
1001
0000
0000
0000
0000
0000
0010
0000
0000
0000
0000
0000
1100
0000
0000
,
0000
0010
0000
1001
0000
0010
0000
1001
0010
0000
0001
1100
0000
0010
0000
1001
,
0000
1010
0000
0101
0000
0010
0000
1001
0100
0000
0010
1001
0000
0100
0000
0011
,
0000
0100
0000
1001
0000
0100
0000
1001
0100
0000
0010
1001
0000
0101
0000
0011
,
0000
0101
0000
1001
0000
0010
0000
1001
0010
0000
0100
0011
0000
0100
0000
1001
,
0000
0010
0000
1100
0000
0010
0000
0101
1000
0000
0100
1010
0000
0001
0000
0110
,
0000
0110
0000
1000
0100
0010
0100
1000
0010
0001
0010
1000
0100
0010
0100
1000
,
0010
0000
0000
0001
0000
0000
0010
0000
0000
1000
0000
0000
0010
0000
0000
1100
0000
0000
0001
0000
0000
1000
0000
0000
0010
0000
0000
1100
0000
0000
0001
0000
0000
1000
0000
0100
0000
0010
0000
0101
0000
1000
0000
0100
0000
0010
0000
0001
,
0000
0010
1000
0000
0100
0000
0010
1000
0001
0100
0000
0000
0000
0000
0000
0010
0000
0000
0000
0000
0000
0101
0000
0000
1000
0000
0000
0010
0000
0000
0000
0000
0000
0101
0000
0000
0000
0000
0000
0010
0000
0000
0000
0000
0000
1100
0000
0000
,
0000
0010
0000
0101
0000
0010
0000
1100
0001
0010
0001
0100
0000
0011
0000
1100
,
0000
0110
0000
1001
0000
0100
0000
1001
0010
0100
0010
1001
0000
0110
0000
1001
,
0000
0110
0000
0001
0000
0100
0000
1001
0010
0100
0000
1001
0000
0011
0000
1001
,
0000
0011
0000
1000
0000
0010
0000
0100
0010
0001
0010
1100
0000
0011
0000
0110
,
0000
1001
0000
1000
0000
0010
0000
0100
1000
0001
0000
1010
0000
0011
0000
1100
,
0000
0101
0000
1010
0001
1010
0001
1100
0001
0110
0001
1100
0010
0100
0010
1100
,
0001
0000
0000
0010
0000
0000
0001
0000
0000
1010
0000
0000
0100
0000
0000
0010
0000
0000
0001
0000
0000
1010
0000
0000
0100
0000
0000
0010
0000
0000
0001
0000
0000
1000
0000
0100
0000
0010
0000
0001
0000
1000
0000
0100
0000
0010
0000
0001
,
0000
1000
0000
0100
0000
0010
0000
0001
0000
1100
0000
0000
0000
0000
0000
0001
0000
0000
0000
0000
0000
1001
0000
0000
0000
0000
0000
0010
0000
0000
0000
0000
0000
1100
0000
0000
0000
0000
0000
0100
0000
0000
0000
0000
0000
1010
0000
0000
,
0000
0010
0000
1001
0000
0100
0000
0101
0000
0010
0100
1010
0000
1000
0000
1100
,
0000
0011
0000
1100
0000
1001
0010
0000
0010
1001
0000
1010
0000
0100
0000
0011
,
0000
0010
0000
1010
0000
0100
0000
0011
0100
0000
0001
1010
0000
1000
0100
0011
,
0000
0101
0010
1001
0000
0001
0010
1100
0000
0010
0010
0101
0000
0110
0000
1001
,
0000
0100
0010
1100
0000
0001
0000
0101
0000
0010
0100
1001
0000
0010
0000
0101
,
0000
1000
0010
1100
0000
0010
0000
0101
0000
0001
1000
0110
0000
0010
0001
1100
,
0000
0000
0000
0001
0000
0000
0010
0000
0000
2102
0000
0000
0000
0000
0000
0000
0000
0000
0000
0000
0000
0000
0000
0000
0000
0000
0000
0010
0000
0000
0100
0000
0000
0010
0000
0000
0100
0000
0000
0010
0000
0100
0000
0010
0000
0100
0000
0010
,
0000
0100
0000
0010
0000
0100
3003
0010
0000
0201
0000
0000
0000
0000
0000
0010
0000
0000
0000
0000
0000
1001
0000
0000
0000
0000
0000
0001
0000
0000
0000
0000
0000
1010
0000
0000
0000
0000
0000
0001
0000
0000
0000
0000
0000
1001
0000
0000
,
0000
0011
0300
1020
0000
0001
0000
1100
0000
1000
0000
0101
0000
0001
0000
1001
,
0000
0100
0030
2010
0000
0100
0000
0101
0000
0010
0000
0110
0000
0101
0000
0011
,
0000
0110
3000
1020
0000
1000
0000
0101
0000
0100
0000
1100
0000
0001
0000
1001
,
0000
0100
0030
2001
0000
0100
0000
0011
0000
0001
0000
0110
0000
0010
0000
0101
,
0000
0110
3000
1020
0000
0100
0000
1001
0000
0100
0000
0101
0000
0001
0000
1100
,
0000
0100
0030
0001
0100
0001
0100
0001
1000
0001
1000
0001
0010
0001
0010
0100
,
0010
0000
0000
0100
0000
0000
0010
0000
0000
0001
0000
0000
0100
0000
0000
0010
0000
0000
1000
0000
0000
0001
0000
0000
0100
0000
0000
0010
0000
0000
1000
0000
0000
0001
0000
0010
0000
0100
0000
0010
0000
0100
0000
1000
0000
0001
0000
0010
,
0000
0100
0000
0010
0000
0100
0000
1000
0000
0011
0000
0000
0000
0000
0000
0001
0000
0000
0000
0000
0000
1100
0000
0000
0000
0000
0000
0010
0000
0000
0000
0000
0000
1001
0000
0000
0000
0000
0000
0100
0000
0000
0000
0000
0000
1001
0000
0000
,
0000
0101
0000
0011
0000
0100
0000
0011
0000
1000
0000
0101
0000
0010
0000
1100
,
0000
0100
0000
1010
0000
0010
0000
0101
0000
0100
0000
0011
0000
0110
0000
1100
,
0000
1001
0000
0110
0000
1000
0000
0011
0000
0100
0000
1010
0000
0001
0000
1001
,
0000
0100
0000
1100
0000
0010
0000
0101
0000
0010
0000
1100
0000
0010
0000
1001
,
0000
0011
0000
0101
0000
1000
0000
1010
0000
0100
0000
0101
0000
1000
0000
0011
,
0000
0100
0000
1001
0100
0010
0100
0001
0100
0010
0100
0001
0100
0010
0100
0001
,
0100
0000
0000
1000
0000
0000
0100
0000
0000
0010
0000
0000
0001
0000
0000
1000
0000
0000
0001
0000
0000
0010
0000
0000
0100
0000
0000
1000
0000
0000
0001
0000
0000
0010
0000
0100
0000
1000
0000
0001
0000
0010
0000
0100
0000
1000
0000
0001
,
0000
0010
0000
0100
0000
1000
0000
0100
0000
1011
0000
0000
0000
0000
0000
0100
0000
0000
0000
0000
0000
0101
0000
0000
1000
0000
0000
0000
0000
0000
0010
0000
0000
1100
0000
0000
0000
0000
0000
0001
0000
0000
0000
0000
0000
1001
0000
0000
,
0000
0100
0000
0011
0000
1000
0000
0101
0010
0000
0010
1001
0000
0100
0000
0011
,
0000
0101
0000
1010
0000
0100
0000
0011
0100
0000
1000
0101
0000
0001
0000
0110
,
0000
1000
0000
1010
0000
0001
0000
0110
1000
0000
0100
0011
0000
1001
0000
0101
,
0000
0011
0000
0110
0000
1000
0000
0101
1000
0000
0001
0110
0000
0100
0000
1001
,
0000
0010
0000
1100
0000
0001
0000
0110
1000
0000
0010
1100
0000
0010
0000
1001
,
0000
1001
0000
0001
0010
0100
0010
1000
0001
0010
0001
1000
0100
0010
0100
0010
,
0001
0000
0000
1000
0000
0000
0010
0000
0000
0100
0000
0000
0001
0000
0000
1100
0000
0000
0001
0000
0000
1000
0000
0000
0001
0000
0000
1100
0000
0000
0010
0000
0000
0001
0000
0010
0000
0100
0000
1001
0000
0010
0000
0100
0000
1000
0000
0010
,
0000
0100
0000
0010
1000
0001
0000
0010
0000
1100
0000
0000
0000
0000
0000
0001
0000
0000
0000
0000
0000
1001
0000
0000
0100
0000
0000
0010
0000
0000
0000
0000
0000
1100
0000
0000
0000
0000
0000
0010
0000
0000
0000
0000
0000
0101
0000
0000
,
0000
0010
0000
1100
0000
0001
0000
0110
1000
0100
0010
1001
0000
0110
0000
1100
,
0000
0011
0000
0110
0000
1000
0000
0101
0010
1000
0010
1100
0000
0101
0000
1001
,
0000
1010
0000
0010
0000
1000
0000
0101
0010
0001
0000
0110
0000
0011
0000
1100
,
0000
0101
0000
1010
0000
0001
0000
1000
0100
0010
0100
1010
0000
1001
0000
0110
,
0000
1100
0000
1001
0000
0001
0000
1000
0010
0001
0000
0110
0000
1100
0000
0011
,
0000
1001
0000
0110
1000
0110
0001
0110
1000
0110
0001
1100
0010
0100
0010
1100
,
0001
0000
0000
0010
0000
0000
0001
0000
0000
1010
0000
0000
0100
0000
0000
1000
0000
0000
0100
0000
0000
0011
0000
0000
0100
0000
0000
1000
0000
0000
0100
0000
0000
1010
0000
0100
0000
1000
0000
0100
0000
0010
0000
0100
0000
0011
0000
0100
,
0000
0010
0000
0100
0000
1000
0000
0100
0000
2010
0000
0000
0000
0000
0000
0000
0000
0000
0000
0000
0000
0010
0000
0000
0000
0000
0000
0001
0000
0000
0000
0000
0000
0000
0000
0000
0000
0000
0000
0100
0000
0000
0000
0000
0000
0000
0000
0000
,
0000
0011
0000
3210
0000
0000
0000
0001
0000
1000
0000
0000
0000
1010
0000
0001
,
0000
1001
0000
1320
0000
0000
0000
0100
0000
0001
0000
0000
0000
1000
0000
0000
,
0000
0101
0000
0132
0000
0000
0000
0110
0000
1000
0000
0000
0000
0110
0000
1010
,
0000
1100
0000
0123
0000
0000
0000
0001
0000
1000
0000
0000
0000
0100
0000
0000
,
0000
0101
0000
1230
0000
0000
0000
0001
0000
0010
0000
0000
0000
1010
0000
0000
,
0000
1001
0000
1310
0100
0010
0001
1010
0100
1000
0100
0010
0001
1010
0100
1010
,
0100
0000
0000
1010
0000
0000
1010
0000
0000
1010
0000
0000
0001
0000
0000
0010
0000
0000
0100
0000
0000
1000
0000
0000
0100
0000
0000
0010
0000
0000
0001
0000
0000
0010
0000
0100
0000
1000
0000
0100
0000
0010
0000
0001
0000
0010
0000
0100
,
0000
1000
0000
0100
0000
0010
0000
0001
0000
1010
0000
0000
0000
0000
0000
0010
0000
0000
0000
0000
0000
1001
0000
0000
0010
0000
0000
0000
0000
0000
0001
0000
0000
1010
0000
0000
0000
0000
0000
1001
0000
0000
0000
0000
0000
0110
0000
0000
,
0000
0011
0000
0001
0000
0100
0000
0011
0100
0000
1000
0110
0000
0101
0000
1010
,
0000
0011
0000
1000
0000
0001
0000
0101
1000
0000
0010
1100
0000
1000
0000
0101
,
0000
1001
0000
1010
0000
0100
0000
1010
0100
0000
1000
0011
0000
1010
0000
0110
,
0000
0101
0000
1001
0000
0010
0000
1100
0000
0010
0000
0101
0000
0010
0000
1100
,
0000
0010
0000
0101
0000
0010
0000
1100
0000
0001
0000
0110
0000
1000
0000
0101
,
0000
0011
1000
0101
0000
0001
0000
1100
0000
0010
0000
0101
0000
0100
0000
1001
,
0000
0000
0000
0010
0000
0000
0000
0000
0000
0010
0000
0000
0100
0000
0000
1001
0000
0000
0010
0000
0000
0100
0000
0000
1000
0000
0000
0110
0000
0000
0001
0000
0000
1000
0000
0010
0000
0100
0000
0001
0000
1000
0000
0010
0000
0100
0000
0001
,
0000
1000
0000
0010
0000
0100
0000
0001
0000
1110
0000
0000
0000
0000
0000
0010
0000
0000
0000
0000
0000
1200
0000
0000
0000
0000
0000
0001
0000
0000
0000
0000
0000
1000
0000
0000
0000
0000
0000
0010
0000
0000
0000
0000
0000
1001
0000
0000
,
0000
0310
0000
1002
0000
0100
0000
1000
0000
0010
0000
1000
0000
0100
0003
1001
,
0000
0101
0000
1020
0000
0100
0000
1000
0000
0001
0000
0100
0000
1001
0000
0100
,
0000
0001
0030
1200
0000
0010
0000
1000
0000
0001
0000
1000
0000
1010
0300
1001
,
0000
1010
0000
0101
0000
1000
0000
0110
0000
1002
0000
0100
0000
1000
0000
0010
,
0000
0100
0003
1000
0000
0100
0000
1010
0000
0102
0000
1000
0000
0100
0000
1010
,
0000
1100
0003
2020
0000
0000
0000
0000
0000
0000
0000
0000
3030
0101
0000
1010
,
0000
0000
0000
0101
0000
0000
0000
0000
0000
1010
0000
0000
0100
0000
0000
0001
0000
0000
0010
0000
0000
1000
0000
0000
0100
0000
0000
0010
0000
0000
0100
0000
0000
0001
0000
0010
0000
0100
0000
0010
0000
0100
0000
1000
0000
0001
0000
0010
,
0000
0100
0000
0010
0000
0100
0000
1000
0000
0022
0000
0000
0000
0000
0000
0000
0000
0000
0000
0000
0000
0000
0000
0000
0000
0000
0000
0000
0000
0000
0000
0000
0000
0000
0000
0000
0000
0000
0000
0033
0000
0000
0000
0000
0000
0000
0000
0000
;
